Выбор камеры

Аватар пользователя admin

Сейчас очень большой выбор устройств для съёмки. Полно видеокамер разных марок, появились устройства и даже насадки для 3D. Можно снимать на фотоаппарат и телефон. Всё-таки, если вы задались целью сделать монтаж и хороший фильм, home video, следует приобрести именно видеокамеру.

 

На что нужно обращать внимание? Во-первых, для чего нужна камера - снимать свадьбу и юбилей или подводные съёмки? Во-вторых, какого вида файлы вы получите на выходе? Можно ли их монтировать?

 

 

Невозможно описать детально каждый камкордер, для этого есть специальные сайты - магазины. Мы ничего не продаем, просто делимся с вами, уважаемые видеолюбители, своим опытом в этой области. Для начала возьмите простую видеокамеру, лучше новую. Срок службы камеры 5-10 лет, и будет обидно, если ваша откажет через полгода использования. Вы можете задавать вопросы, если информация есть, то получите ответ. Будет здорово, если и вы поделитесь своим опытом приобретения и использования видеокамеры.

Успеха!

 

Комментарии

Аватар пользователя overload

Размытость

Это как? Расфокусировка?

В видео в бытовых условиях это сделать практически невозможно.

Можно попробовать фильтры типа Sharpen - они обычно есть в монтажках Пинакль, Премьер. Добавляют кадру чёткости. Однако появляется и зернистость - кадр зашумливается.

Любой фильтр одно лечит, другое - калечит.

Аватар пользователя vvk

Это как? Расфокусировка?   

Это как? Расфокусировка?    Скорее всего. И наверняка оптика неразборная... Ну да ладно, что нибудь придумаем. Спасибо за ответ.

Аватар пользователя vvk

  Разобрался. Эти косорукие

  Разобрался. Эти косорукие идиоты умудрились вкрутить объектив не по резьбе, да еще и клеем залили. Полвечера с гвоздем и какой-то матерью в качестве инструментов, и картинка стала заметно лучше. Но старый рег при искуств. освещении все равно давал более светлую картинку. Что бы придумать?

Аватар пользователя overload

Ууу...

Ну, друг мой, это проще на мобилу снимать...

Кстати, по поводу китайских нонеймов и заклеенных объективов.

Есть вот такой материал.

Читал - сперва ржал донельзя, потом - призадумался: а ведь люди так попадают...

Аватар пользователя vvk

Ну, друг мой, это проще на

Ну, друг мой, это проще на мобилу снимать...

Это ролик не постановочный, схватил первое, что под рукой было, да и ИК-подсветки в мобиле нет, было б совсем неразборчиво, освещение то слабое.

Кстати, по поводу китайских нонеймов и заклеенных объективов.

Есть вот такой материал.

Читал - сперва ржал донельзя, потом - призадумался: а ведь люди так попадают...

Ну, именно этот рег как раз $33 и стоит(на авторынке+возврат в течении месяца, если б не сделал-вернул), и покупался по принципу- лишь бы работал, все таки основное его назначение- на случай проишествий. Реги дорогие вообще редко берут, очень легко их стащить.

 

 

 

Аватар пользователя overload

Ну...

Ну тогда какого ты хочешь от него качества?

Мыло мылом и будет.

Аватар пользователя overload

HD

HD - Hren-definition?

Проверь хохмы ради. Посмотрим.

А потом не забудь загнать полученный файл в прогу MediaInfo и посмотри реальные размер кадра и скорость потока.

Аватар пользователя vvk

GeneralComplete

General
Complete name                    : G:\DCIM\100MEDIA\SUNP0062.AVI
Format                           : AVI
Format/Info                      : Audio Video Interleave
File size                        : 27.6 MiB
Duration                         : 15s 603ms
Overall bit rate                 : 14.8 Mbps

Video
ID                               : 0
Format                           : JPEG
Codec ID                         : MJPG
Duration                         : 15s 603ms
Bit rate                         : 17.9 Mbps
Width                            : 1 280 pixels
Height                           : 720 pixels
Display aspect ratio             : 16:9
Frame rate                       : 30.122 fps
Color space                      : YUV
Compression mode                 : Lossy
Bits/(Pixel*Frame)               : 0.645
Stream size                      : 32.9 MiB

Audio
ID                               : 1
Format                           : PCM
Format settings, Endianness      : Little
Format settings, Sign            : Signed
Codec ID                         : 1
Codec ID/Hint                    : Microsoft
Duration                         : 15s 418ms
Bit rate mode                    : Constant
Bit rate                         : 176.4 Kbps
Channel(s)                       : 1 channel
Sampling rate                    : 11.025 KHz
Bit depth                        : 16 bits
Stream size                      : 332 KiB (1%)
Interleave, duration             : 93 ms (2.80 video frames)

 Это выдала кнопка Медиа-Файл Инфо в ФФ. Что-то я не понимаю, размер приличный, а картинка не очень.

Аватар пользователя overload

Размер приличный, а картинка не очень

1. Диаметр объектива твоего девайса?

2. Размер матрицы?

3. Посмотри на это всё - и поймёшь, сколько света туда попадает... откуда ей взяться-то, приличной картинке.

А насчёт веса файла... так скажу. Прикинь, вот боксёр. Полусредний вес. Забросил тренировки, начал жрать пиво, набрал жиру килограмм 10-15 - и вот он уже - средний вес... А настоящий ли это будет средник, если добрая четверть его массы - абсолютно бесполезный жир?

Наоборот... ему будет только тяжелее двигаться, работать.

Так и тут.

HD здесь, конечно, левый. Размер картинки ты хоть метр на метр делай. Лучше она с того не станет - только больше.

Для того, чтобы правильный HD сделать, нужны определённые предпосылки, требования к железу. А тут их - нет. Дырка с мышиный глаз, одна матрица неизвестно какого размера (подозреваю, что 1\5"), да не пойми какое сжатие (контейнер AVI, в нём MPEG...).

Аватар пользователя vvk

  Было б неплохо. Но я

  Было б неплохо. Но я надеюсь в ближайшее время перезагрузить без сжатия, может картинка чуть лучше будет. http://youtu.be/XKp5egWEHqk - без сжатия, вроде чуть получше. Теперь можно и на конкурс. 

Аватар пользователя admin

Размытость?

Привет, vvk! Конечно, существуют. Из более простых - Corel, посложнее - Adob After effect. Например, можно изменить контраст, яркость в Corel. Или что имелось в виду? Даже встроенный видеоредактор Youtube предлагает стабилизацию и улучшение четкости.

Аватар пользователя vvk

 Сорри за 2 темы по 1

 Сорри за 2 темы по 1 вопросу. Ютубовского не хватает, надо мощнее.

Аватар пользователя vvk

 Матрица примерно 3 на 3мм. С

 Матрица примерно 3 на 3мм. С этим понятно, чудес за 30у.е. не бывает. Ну да ладно, цена тоже достоинство.

Аватар пользователя overload

Поздравьте

У меня новая камера, вот такая -

Пока разбираюсь с ней. По сравнению с моей Sony AX 2000E она слишком простая (и стоит вдвое меньше). Однако брал я её для определённых задач. Она - плечевая (легче работать, не нужен штатив). Она снимает FullHD в довольно приличном качестве и фотосъёмка получается неплохая. Минус - всё меню исключительно с тачскрина, ни одной назначаемой кнопки - быстро менять настройки на ней не получится. Но мне этого и не надо: предназначена она исключительно для двух видов съёмки: долгой улицы, когда освещение хорошее, а бродить приходится долго - и для съёмки со штатива "длинного кадра" - например, какого-то концерта. Поставил её на штатив, нажал кнопку Rec - и забыл на два часа, а крупняк снимаешь моей основной...

И есть своя память на 32 гига.

В общем, доволен, как стадо слонов на водопое.

 

Аватар пользователя admin

Вот этта да-а-а!!!

Вот этта да-а-а!!! Поздравляем! Супер!

Даже завидно! Ну что же, ждем новых суперских фильмов, а также статей, как с ней, родной работать - какие навороты и хитрости (для новичков и продвинутых юзеров))))))))))))))))). 

Добавить комментарий

Plain text

  • HTML-теги не обрабатываются и показываются как обычный текст
CAPTCHA
Этот вопрос задается для того, чтобы выяснить, являетесь ли Вы человеком или представляете из себя автоматическую спам-рассылку.
8 + 7 =
Решите эту простую математическую задачу и введите результат. Например, для 1+3, введите 4.